The.Human.Centipede.2011.TRUEFRENCH.DVDRiP.XViD-LEGiON URL Raccourcie

The Human Centipede (First Sequence)










Origine du film : Pays-Bas


Réalisateur : Tom Six


Acteurs : Dieter Laser, Ashley C. Williams, Andreas Leupold, Akihiro Kitamura, Ashlynn Yennie


Genre : Epouvante-horreur


Durée : 1h30min


Date de sortie : Octobre 2011


Année de production : 2009


Titre Original : The Human Centipede (First Sequence)


Critiques Spectateurs :  3/5


Critiques Presse : /5






Une nuit, deux jeunes américaines en voyage à travers l'Europe, tombent en panne en plein milieu d'une forêt. Par chance, elles découvrent une maison dans laquelle vit un ancien chirurgien allemand, le docteur Heiter. Ravies d'y trouver refuge, elles sont alors loin d'imaginer qu'elles vont devenir les cobayes d'une expérience chirurgicale inédite : le médecin entend en effet créer un mille-pattes humain en les reliant entre elles par un seul et même tube digestif.




Qualité : DVDRiP


Format : AVi


Langue : Français




↓↓↓ The.Human.Centipede.2011.TRUEFRENCH.DVDRiP.XViD-LEGiON ↓↓↓
 
Seeders 157 Leechers 0 Téléchargements 31484
 
Télécharger Dire merci! Signaler
Voir la liste des membres qui vous remercient
↑↑↑ The.Human.Centipede.2011.TRUEFRENCH.DVDRiP.XViD-LEGiON ↑↑↑

Informations

Nom The.Human.Centipede.2011.TRUEFRENCH.DVDRiP.XViD-LEGiON
Torrent The.Human.Centipede.2011.TRUEFRENCH.DVDRiP.XViD-LEGiON.avi.torrent
Catégorie Film
Taille totale 701.55 MB
Info Hash 279dc08d4def014d6cbbd67318c788bd8250ef5b
Uploadé par JohnDoe
Uploadé le 2011-10-15 18:09:45 (+00:00)
Visites 27828
évaluation 4.5/5 (198 votes)

Liste des Fichiers

Path Size
The.Human.Centipede.2011.TRUEFRENCH.DVDRiP.XViD-LEGiON.avi 701.55 MB

Voir le NFO

-------------------------------------------------------------------------------
                              General Information
-------------------------------------------------------------------------------




-------------------------------------------------------------------------------
                                 Release Notes
-------------------------------------------------------------------------------
The.Human.Centipede.2011.TRUEFRENCH.DVDRiP.XViD-LEGiON.avi
Format                           : AVI
Format/Info                      : Audio Video Interleave
File size                        : 702 MiB
Duration                         : 1h 28mn
Overall bit rate                 : 1 113 Kbps
Movie name                       : 
The.Human.Centipede.2011.TRUEFRENCH.DVDRiP.XViD-LEGiON
Writing application              : Lavf52.33.0
Original source form/Name        : THE_HUMAN_CENTIPEDE

Video
ID                               : 0
Format                           : MPEG-4 Visual
Format profile                   : Simple@L3
Format settings, BVOP            : No
Format settings, QPel            : No
Format settings, GMC             : No warppoints
Format settings, Matrix          : Default (H.263)
Codec ID                         : XVID
Codec ID/Hint                    : XviD
Duration                         : 1h 28mn
Bit rate                         : 972 Kbps
Width                            : 624 pixels
Height                           : 352 pixels
Display aspect ratio             : 16:9
Frame rate                       : 25.000 fps
Color space                      : YUV
Chroma subsampling               : 4:2:0
Bit depth                        : 8 bits
Scan type                        : Progressive
Bits/(Pixel*Frame)               : 0.177
Stream size                      : 613 MiB (87%)
Writing library                  : XviD 1.2.1 (UTC 2008-12-04)

Audio
ID                               : 1
Format                           : MPEG Audio
Format version                   : Version 1
Format profile                   : Layer 3
Mode                             : Joint stereo
Mode extension                   : MS Stereo
Codec ID                         : 55
Codec ID/Hint                    : MP3
Duration                         : 1h 28mn
Bit rate mode                    : Constant
Bit rate                         : 128 Kbps
Channel(s)                       : 2 channels
Sampling rate                    : 48.0 KHz
Stream size                      : 80.6 MiB (11%)
Alignment                        : Aligned on interleaves
Interleave, duration             : 24 ms (0.60 video frame)


Ajouter un commentaire

1 - 20 | 21 - 40 | 41 - 60 | ... | 141 - 160 | 161 - 180 | 181 - 198
spiplag ↑ 2.52 TB ↓ 2.99 TB Ratio: 0,84

1er commentaire que je vois et déjà un spoil -__-'

Diabalex ↑ 4.15 TB ↓ 3.38 TB Ratio: 1,22

so.. la 2e fille meurt à fin.... théoriquement elle ne peux plus chier et avaler.... Me briserait le nez pour crever étouffer avec mon sang rendue là....

Dernière édition par Diabalex le 2015-04-10 21:11:54

ilmo03

"MERCI pour ce super film. L'image, le son tout est ok, c'est aussi super qu'il y ait les sous-titres Français lorsque les personnages parlent Japonais ou bien Allemand. Seul petit truc à ajouter, j'ai regardé l'avis des gens, et d'après eux c'est un film "gore" avec des images perturbantes etc. Etant amatrice de films un peu dérangés, violents et gore je me suis dit que ce serait un grand bonheur. Malheureusement j'ai été déçue sur ce point. On ne voit pratiquement aucune scène lors de "l'attache" des personnes entre elles, moi qui pensais voir du sang, de la chaire et tout ça. Appart ça je rappelle que c'est un bon film à voir avec cette "histoire" plutôt originale ! Je regarde le 2 ce soir, j'ai hâte"

+1 sérieux j'ai à peine soufflé du nez moi

jimy62 ↑ 336.68 GB ↓ 18.05 GB Ratio: 18,64

merci sa ma l'air bien dégeu lol je vais regarder sa

unfaithful ↑ 852.24 GB ↓ 610.64 GB Ratio: 1,39

putain ! les gens vous faites peur quand on lit les coms j'hesite a voir le film....

unfaithful ↑ 852.24 GB ↓ 610.64 GB Ratio: 1,39

putain ! les gens vous faites peur quand on lit les coms j'hesite a voir le film....

unfaithful ↑ 852.24 GB ↓ 610.64 GB Ratio: 1,39

putain ! les gens vous faites peur quand on lit les coms j'hesite a voir le film....

V4R4N ↑ 3.07 TB ↓ 2.01 TB Ratio: 1,52

un classique! merci l'ami

sengaagnes ↑ 390.34 GB ↓ 512.05 GB Ratio: 0,76

son et image de bonne qualité, merci
bon film a tous, ayez l'estomac bien accroché

amer101 ↑ 149.18 GB ↓ 88.35 GB Ratio: 1,68

merci! j'aurai surement des cauchemars mais ça fait longtemps que j'ai envie de le voir

quentin61400 ↑ 2.33 TB ↓ 1.92 TB Ratio: 1,21

Film de tordu mais bien fait pas mal du tout jdirai 7 sur 10

ASAP70 ↑ 255.75 GB ↓ 262.25 GB Ratio: 0,97

Merci pour le partage

Eliottess ↑ 7 TB ↓ 1.09 TB Ratio: 6,39

Je suis curieuse de voir ça de puis qu'on m'en a parlé.
C'est parti ...

yaniss57 ↑ 1.3 TB ↓ 1.3 TB Ratio: 1,00

Immonde a gerber faut vraiment être tordu pour écrire un scénario pareil ...

algolis ↑ 136.07 GB ↓ 161.32 GB Ratio: 0,84

merci!!! pur delire ce film

Twitch31 ↑ 287.29 GB ↓ 356.07 GB Ratio: 0,80

Thx pour le film

julien2307 ↑ 77.36 GB ↓ 17.58 GB Ratio: 4,39

Merci pour le partage. Film très... dérangeant....

lebidou35

Un film sans queue ni tête

Orochi666 ↑ 401.04 GB ↓ 346.29 GB Ratio: 1,15

je me suis bien fait chier

le réalisateur c'est juste un gros scato T_T
j'ai trouver les films très débile....
mais merci pour le partage

Karadan94 ↑ 90.73 GB ↓ 95.35 GB Ratio: 0,95

on ma dis que du bien de ce film ! Merci

1 - 20 | 21 - 40 | 41 - 60 | ... | 141 - 160 | 161 - 180 | 181 - 198
 
Loading...