La Delicatesse 2011 FRENCH DVDRip XviD - UTT URL Raccourcie

(¯`·._.·[  La Délicatesse  ]·._.·´¯







Titre original : Aucune information ...
Année de production : 2011
Réalisateur : Stéphane Foenkinos
Durée : Aucune information ...
[Acteurs : Audrey Tautou,François Damiens,Bruno Todeschini,Joséphine de Meaux
Genre : Comédie dramatique
Date de sortie : 21 Décembre 2011
Année de production : 2011
Année de production : France

Bande annonce :



La Délicatesse



Il passait par là, elle l'avait embrassé sans réfléchir. Maintenant,elle se demande si elle a bien fait. C'est l'histoire d'une femme quiva être surprise par un homme. Réellement surprise.



Hébergeur : SEEBOX
Qualité : DVDRiP
Format : Mpeg-4
Langue : Français
Sous-titre : Aucun
Découper avec : Aucun
Nom de la Release : La Delicatesse 2011 FRENCH DVDRip XviD - UTT

Nombre et taille des fichiers 1 X 700 Mo

Total du post : 700 Mo











Générée le :23-05-2012 à 00:07



↓↓↓ La Delicatesse 2011 FRENCH DVDRip XviD - UTT ↓↓↓
 
Seeders 109 Leechers 0 Téléchargements 50509
 
Télécharger Dire merci! Signaler
Voir la liste des membres qui vous remercient
↑↑↑ La Delicatesse 2011 FRENCH DVDRip XviD - UTT ↑↑↑

Informations

Nom La Delicatesse 2011 FRENCH DVDRip XviD - UTT
Torrent La.Delicatesse.2011.FRENCH.DVDRip.XviD-UTT.avi.torrent
Catégorie Film
Taille totale 700.47 MB
Info Hash 2c119566ce398ac870b663a68f9aadbc2a83b70e
Uploadé par Anonymous
Uploadé le 2012-05-22 22:07:55 (+00:00)
Visites 61786
évaluation 4.8/5 (228 votes)

Liste des Fichiers

Path Size
La.Delicatesse.2011.FRENCH.DVDRip.XviD-UTT.avi 700.47 MB

Voir le NFO

General
Complete name                            : La.Delicatesse.2011.FRENCH.DVDRip.XviD-UTT.avi
Format                                   : AVI
Format/Info                              : Audio Video Interleave
File size                                : 700 MiB
Duration                                 : 1h 44mn
Overall bit rate                         : 935 Kbps
Writing application                      : MEncoder SVN-r22963
Writing library                          : MPlayer

Video
ID                                       : 0
Format                                   : MPEG-4 Visual
Format profile                           : Simple@L3
Format settings, BVOP                    : No
Format settings, QPel                    : No
Format settings, GMC                     : No warppoints
Format settings, Matrix                  : Default (H.263)
Codec ID                                 : XVID
Codec ID/Hint                            : XviD
Duration                                 : 1h 44mn
Bit rate                                 : 802 Kbps
Width                                    : 704 pixels
Height                                   : 384 pixels
Display aspect ratio                     : 16:9
Frame rate                               : 25.000 fps
Color space                              : YUV
Chroma subsampling                       : 4:2:0
Bit depth                                : 8 bits
Scan type                                : Progressive
Compression mode                         : Lossy
Bits/(Pixel*Frame)                       : 0.119
Stream size                              : 601 MiB (86%)
Writing library                          : XviD 1.1.2 (UTC 2006-11-01)

Audio
ID                                       : 1
Format                                   : MPEG Audio
Format version                           : Version 1
Format profile                           : Layer 3
Mode                                     : Joint stereo
Mode extension                           : MS Stereo
Codec ID                                 : 55
Codec ID/Hint                            : MP3
Duration                                 : 1h 44mn
Bit rate mode                            : Constant
Bit rate                                 : 128 Kbps
Channel(s)                               : 2 channels
Sampling rate                            : 48.0 KHz
Compression mode                         : Lossy
Stream size                              : 95.9 MiB (14%)
Alignment                                : Split accross interleaves
Interleave, duration                     : 500 ms (12.50 video frames)
Interleave, preload duration             : 500 ms
Writing library                          : LAME3.98

Ajouter un commentaire

KrisZin ↑ 34.4 GB ↓ 19.31 GB Ratio: 1,78

Merci, tout à l'air parfait, son et image.

bubblesoapandco ↑ 147.46 GB ↓ 90.83 GB Ratio: 1,62

Merci beaucoup, très beau film, tellement bien réalisé et fidèle au livre que je craque !!!

minotaure121 ↑ 1.3 TB ↓ 528.53 GB Ratio: 2,52

merci, d'aucunes seront ravies d'un tel scenario

mortissia ↑ 653.78 GB ↓ 155.76 GB Ratio: 4,19

Merci de partager ce film. Je viens juste de le regarder j'ai adoré

xzt245 ↑ 229.37 GB ↓ 174.62 GB Ratio: 1,31

gigitag ↑ 4.82 TB ↓ 2.94 TB Ratio: 1,63

Merci beaucoup

kriager ↑ 33.12 GB ↓ 44.82 GB Ratio: 0,73

merci beaucoup, je viens de finir le livre et il me tarde de voir ce film.

Denomm ↑ 1.45 TB ↓ 1.33 TB Ratio: 1,09

Merci beaucoup

mosmos2011 ↑ 1.3 TB ↓ 852.04 GB Ratio: 1,56

Merci beaucoup

tendancemontagne ↑ 50.94 GB ↓ 28.6 GB Ratio: 1,78

merci, d'aucunes seront ravies d'un tel scenario...

moune2707 ↑ 2.12 TB ↓ 1.76 TB Ratio: 1,20

Image et son ok.

Lullie ↑ 1.15 TB ↓ 541.82 GB Ratio: 2,16

Film délicat et sensible, à l'image d'Audrey Tatou...
A découvrir.

Merci pour ce partage.

trabel28 ↑ 355.87 GB ↓ 348.46 GB Ratio: 1,02

Je ne suis pas capable de le télécharger.  Y aurais t-il une astuce mes tracker me dise not allowed merci

buybychti ↑ 417.08 GB ↓ 275.49 GB Ratio: 1,51

merci beaucoup !

narvik34 ↑ 615.52 GB ↓ 582.57 GB Ratio: 1,05

merci ma femme va adorer je reste en seed thank

sydney47 ↑ 91.59 GB ↓ 102.55 GB Ratio: 0,89

merci beaucoup, c'est en entendant la magnifique bo d'emilie simon que j'ai eu envie de voir le film

daveystyle26 ↑ 252.55 GB ↓ 287.11 GB Ratio: 0,87

Merci bcp pour le film

alexandrabb0701 ↑ 78.91 GB ↓ 74.83 GB Ratio: 1,05

Merci, qualité de l'image et du son impeccable, et très beau film !

colombe2 ↑ 467.44 GB ↓ 502.02 GB Ratio: 0,93

merci

Akatsuki9 ↑ 233.19 GB ↓ 276.59 GB Ratio: 0,84

Merci beaucoup pour ce film! Super B.O. d'Emilie Simon

 
Loading...