Twilight Love (fr, 1 et 2) URL Raccourcie

Twilight Love
Synopsis : Hugo, dit H, est un jeune homme rebelle, impulsif et inconscient. Récemment condamné pour violences, il erre avec sa moto et participe à des courses illégales, constamment à la recherche du risque et du danger. De son côté, Babi, lycéenne de 17 ans, est une fille issue de la haute-société, élevée dans la bonté, l'innocence et la norme. Ces deux êtres que tout oppose se rencontrent par hasard. Amoureux l'un de l'autre, ils partent en voyage...
. Titre original : Tres metros sobre el cielo
. Genre : Drame
. Film espagnol
. Année de production : 2010
. Durée : 1h58min
. Réalisateur : Fernando González Molina
. Casting : Mario Casas, María Valverde



Twilight Love 2
Synopsis : Après avoir vécu deux ans à Londres en tant qu'expatrié, Hugo, dit H, est de retour en Espagne, à Barcelone. Rien n'a vraiment changé et il garde toujours ses distances avec sa famille. Il a du mal à oublier Babi, son ancien amour, et à se remettre du décès de son ami Pollo. Le hasard le met sur la route de Gin, une jeune femme libre et rebelle, qui lui redonne peu à peu goût à la vie. Un jour, il croise à nouveau Babi ...
. Titre original : Tengo ganas de ti
. Genre : Drame
. Film espagnol
. Année de production : 2012
. Durée : 2h00min
. Réalisateur : Fernando González Molina
. Casting : Mario Casas, María Valverde


↓↓↓ Twilight Love (fr, 1 et 2) ↓↓↓
 
Seeders 22 Leechers 5 Téléchargements 4585
 
Télécharger Dire merci! Signaler
Voir la liste des membres qui vous remercient
↑↑↑ Twilight Love (fr, 1 et 2) ↑↑↑

Informations

Nom Twilight Love (fr, 1 et 2)
Torrent Twilight Love (fr).torrent
Catégorie Film
Taille totale 5.05 GB
Info Hash c332495b80046a28ad346bedd80bccde0bb776e4
Uploadé par PiKohler
Uploadé le 2013-06-29 08:21:12 (+00:00)
Visites 9823
évaluation 4.8/5 (45 votes)

Liste des Fichiers

Path Size
Twilight Love (fr)/Twilight Love (2010, fr).avi 2.58 GB
Twilight Love (fr)/Twilight Love 2 (2012, fr).avi 2.47 GB
Twilight Love (fr)/Twilight Love.jpg 333.03 KB
Twilight Love (fr)/Twilight Love 2 .jpg 120.6 KB
Twilight Love (fr)/Twilight Love 2.jpg 54.16 KB
Twilight Love (fr)/Twilight Love .jpg 20.07 KB

Voir le NFO

General
Complete name                            : H:\Films\Twilight Love (fr)\Twilight Love (2010, fr).avi
Format                                   : AVI
Format/Info                              : Audio Video Interleave
File size                                : 2.58 GiB
Duration                                 : 1h 53mn
Overall bit rate mode                    : Variable
Overall bit rate                         : 3 256 Kbps

Video
ID                                       : 0
Format                                   : MPEG Video
Format version                           : Version 2
Format profile                           : Main@Main
Format settings, BVOP                    : Yes
Format settings, Matrix                  : Custom
Format settings, GOP                     : M=3, N=18
Codec ID                                 : MPEG
Codec ID/Info                            : Chromatic MPEG 1 Video I Frame
Duration                                 : 1h 53mn
Bit rate mode                            : Variable
Bit rate                                 : 2 987 Kbps
Maximum bit rate                         : 15.0 Mbps
Width                                    : 720 pixels
Height                                   : 576 pixels
Display aspect ratio                     : 16:9
Active Format Description                : Letterbox 16:9 image
Frame rate                               : 25.000 fps
Standard                                 : PAL
Color space                              : YUV
Chroma subsampling                       : 4:2:0
Bit depth                                : 8 bits
Scan type                                : Interlaced
Scan order                               : Top Field First
Compression mode                         : Lossy
Bits/(Pixel*Frame)                       : 0.288
Stream size                              : 2.37 GiB (92%)

Audio
ID                                       : 1
Format                                   : MPEG Audio
Format version                           : Version 1
Format profile                           : Layer 2
Codec ID                                 : 50
Duration                                 : 1h 53mn
Bit rate mode                            : Constant
Bit rate                                 : 256 Kbps
Channel(s)                               : 2 channels
Sampling rate                            : 48.0 KHz
Compression mode                         : Lossy
Stream size                              : 208 MiB (8%)
Alignment                                : Aligned on interleaves
Interleave, duration                     : 24 ms (0.60 video frame)

General
Complete name                            : H:\Films\Twilight Love (fr)\Twilight Love (fr).torrent
File size                                : 25.8 KiB

General
Complete name                            : H:\Films\Twilight Love (fr)\Twilight Love .jpg
Format                                   : JPEG
File size                                : 20.1 KiB

Image
Format                                   : JPEG
Width                                    : 240 pixels
Height                                   : 185 pixels
Color space                              : YUV
Chroma subsampling                       : 4:4:4
Bit depth                                : 8 bits
Compression mode                         : Lossy
Stream size                              : 20.1 KiB (100%)

General
Complete name                            : H:\Films\Twilight Love (fr)\Twilight Love 2 (2012, fr).avi
Format                                   : AVI
Format/Info                              : Audio Video Interleave
File size                                : 2.47 GiB
Duration                                 : 1h 56mn
Overall bit rate mode                    : Variable
Overall bit rate                         : 3 043 Kbps

Video
ID                                       : 0
Format                                   : MPEG Video
Format version                           : Version 2
Format profile                           : Main@Main
Format settings, BVOP                    : Yes
Format settings, Matrix                  : Custom
Format settings, GOP                     : Variable
Codec ID                                 : MPEG
Codec ID/Info                            : Chromatic MPEG 1 Video I Frame
Duration                                 : 1h 56mn
Bit rate mode                            : Variable
Bit rate                                 : 2 773 Kbps
Maximum bit rate                         : 15.0 Mbps
Width                                    : 720 pixels
Height                                   : 576 pixels
Display aspect ratio                     : 16:9
Active Format Description                : Letterbox 16:9 image
Frame rate                               : 25.000 fps
Standard                                 : PAL
Color space                              : YUV
Chroma subsampling                       : 4:2:0
Bit depth                                : 8 bits
Scan type                                : Interlaced
Scan order                               : Top Field First
Compression mode                         : Lossy
Bits/(Pixel*Frame)                       : 0.268
Stream size                              : 2.25 GiB (91%)

Audio
ID                                       : 1
Format                                   : MPEG Audio
Format version                           : Version 1
Format profile                           : Layer 2
Codec ID                                 : 50
Duration                                 : 1h 56mn
Bit rate mode                            : Constant
Bit rate                                 : 256 Kbps
Channel(s)                               : 2 channels
Sampling rate                            : 48.0 KHz
Compression mode                         : Lossy
Stream size                              : 213 MiB (8%)
Alignment                                : Aligned on interleaves
Interleave, duration                     : 24 ms (0.60 video frame)

General
Complete name                            : H:\Films\Twilight Love (fr)\Twilight Love 2 .jpg
Format                                   : JPEG
File size                                : 121 KiB

Image
Format                                   : JPEG
Width                                    : 1 280 pixels
Height                                   : 853 pixels
Color space                              : YUV
Chroma subsampling                       : 4:4:4
Bit depth                                : 8 bits
Compression mode                         : Lossy
Stream size                              : 121 KiB (100%)

General
Complete name                            : H:\Films\Twilight Love (fr)\Twilight Love 2.jpg
Format                                   : JPEG
File size                                : 54.2 KiB

Image
Format                                   : JPEG
Width                                    : 240 pixels
Height                                   : 185 pixels
Color space                              : YUV
Chroma subsampling                       : 4:4:4
Bit depth                                : 8 bits
Compression mode                         : Lossy
Stream size                              : 54.2 KiB (100%)

General
Complete name                            : H:\Films\Twilight Love (fr)\Twilight Love.docx
File size                                : 16.3 KiB

General
Complete name                            : H:\Films\Twilight Love (fr)\Twilight Love.jpg
Format                                   : JPEG
File size                                : 333 KiB

Image
Format                                   : JPEG
Width                                    : 1 600 pixels
Height                                   : 1 067 pixels
Color space                              : YUV
Chroma subsampling                       : 4:2:0
Bit depth                                : 8 bits
Compression mode                         : Lossy
Stream size                              : 333 KiB (100%)

Ajouter un commentaire

1 - 20 | 21 - 23
KrazyRock450 ↑ 975.69 GB ↓ 726.43 GB Ratio: 1,34

c'est qui stéphane????

gabbi ↑ 251.35 GB ↓ 278.22 GB Ratio: 0,90

MERCI BEAUCOUP

stephane80 ↑ 99.27 GB ↓ 56.63 GB Ratio: 1,75

Stéphane est pd

dinero1307 ↑ 36.23 GB ↓ 41.73 GB Ratio: 0,86

Merci beaucoup pas mal du tout ces films

PiKohler panta rei ↑ 7.05 TB ↓ 329.16 GB Ratio: 21,92

désolé si Vous avez des problèmes. Il y plus de 2000 downloads à ce jour et très peu de problèmes. Essayez avec VLC media player, c'est gratuit et ça fonctionne bien.

sandisb ↑ 445.65 GB ↓ 316.91 GB Ratio: 1,40

ca ne fonctionne pas degue déjà pas trop de ratio mais de diminuer pour rien ca fout les boules quand mm

PiKohler panta rei ↑ 7.05 TB ↓ 329.16 GB Ratio: 21,92

je suis content que ça Vous plait

PiKohler panta rei ↑ 7.05 TB ↓ 329.16 GB Ratio: 21,92

désolé playmodz, je ne pas Vous aider. ce sont des fichiers avi avec le son en MPEG Audio

PiKohler panta rei ↑ 7.05 TB ↓ 329.16 GB Ratio: 21,92

désole, ninielataupe, je ne pas Vous aider. ce sont des fichiers avi avec le son en MPEG Audio

ninielataupe ↑ 143.49 GB ↓ 181.63 GB Ratio: 0,79

Téléchargement OK mais je n'ai ^pas de son !!!

PiKohler panta rei ↑ 7.05 TB ↓ 329.16 GB Ratio: 21,92

désolé, si Vous avez des problèmes de téléchargement il faut plutôt demander aux staff, je ne peux pas Vous aider

soumi77 ↑ 44.16 GB ↓ 52.48 GB Ratio: 0,84

cool.j'espère que ça sera ok.
Merci merci

PiKohler panta rei ↑ 7.05 TB ↓ 329.16 GB Ratio: 21,92

je viens de demander s'ils ne peuvent pas supprimer http://www.t411.me/torrents/twilight-love-fr-1-et-2 et remettre Twilight Love 2 tout seul

soumi77 ↑ 44.16 GB ↓ 52.48 GB Ratio: 0,84

Trop nul, surtout que le 1 seul existe donc leur raison de doublon n'est pas logique.
Merci qu'en même.

PiKohler panta rei ↑ 7.05 TB ↓ 329.16 GB Ratio: 21,92

Désolé, ils ont supprimé le torrent sans préavis et sans me demander de commentaire en disant que c'était un doublon avec la version complète, 1 et 2. Je n'ai posté 2 tout seul que parce qu'on me l'a demandé.

soumi77 ↑ 44.16 GB ↓ 52.48 GB Ratio: 0,84

Bonjour,
Vous dites que le N°2 est disponible mais je ne le vois pas.
Merci de me guider

PiKohler panta rei ↑ 7.05 TB ↓ 329.16 GB Ratio: 21,92

ok, c'est fait, Twilight Love 2 est maintenant disponible tout seul

PiKohler panta rei ↑ 7.05 TB ↓ 329.16 GB Ratio: 21,92

Pour graver utilse http://www.freemake.com/fr/how_to/how_to_burn_dvd_video (c'est en français) et commence peut-être avec un DVD-RW pour voir si tout est ok, mais ensuite les DVD R sont plus rapides et plus faciles à lire par la platine de salon.

PiKohler panta rei ↑ 7.05 TB ↓ 329.16 GB Ratio: 21,92

tout est en français

chtimi72 ↑ 615.1 GB ↓ 346.57 GB Ratio: 1,77

Merci beaucoup ! ça à l'air de fonctionner sur l'ordi-  bon son belle image.

1 - 20 | 21 - 23
 
Loading...